Тема: Winyl 3.2 RC2  (Прочитано 8473 раз)

13 Январь 2016, 10:18:59 am
Ответ #30
  • Administrator
  • Sr. Member
  • *****
  • Сообщений: 484
    • Просмотр профиля
Re: Winyl 3.2 RC1
« Ответ #30 : 13 Январь 2016, 10:18:59 am »
Возвращаясь к началу разговора,и предложенному Вами решению. Если в плейлисте переименовать mp3-файл в соответствующий ему cue-файл (оба файла с одним именем,находятся в одной папке),то при импорте плейлиста cue-файл все равно не добавляется.
Не могу воспроизвести. Если просто этот cue файл перетащить на плеер он добавится в плейлист?

13 Январь 2016, 08:55:26 pm
Ответ #31
  • Newbie
  • *
  • Сообщений: 10
    • Просмотр профиля
Re: Winyl 3.2 RC1
« Ответ #31 : 13 Январь 2016, 08:55:26 pm »
Не могу воспроизвести. Если просто этот cue файл перетащить на плеер он добавится в плейлист?

Если перетащить этот cue-файл на плеер,то он добавляется.При импорте плейлиста ,соответственно, не добавляется.

14 Январь 2016, 11:24:45 am
Ответ #32
  • Administrator
  • Sr. Member
  • *****
  • Сообщений: 484
    • Просмотр профиля
Re: Winyl 3.2 RC1
« Ответ #32 : 14 Январь 2016, 11:24:45 am »
Если перетащить этот cue-файл на плеер,то он добавляется.При импорте плейлиста ,соответственно, не добавляется.
Странно, выложите это плейлист и cue файл.

14 Январь 2016, 09:36:37 pm
Ответ #33
  • Newbie
  • *
  • Сообщений: 10
    • Просмотр профиля
Re: Winyl 3.2 RC1
« Ответ #33 : 14 Январь 2016, 09:36:37 pm »
Если перетащить этот cue-файл на плеер,то он добавляется.При импорте плейлиста ,соответственно, не добавляется.
Странно, выложите это плейлист и cue файл.

Проверил еще раз.Данные из cue-файла добавляются,но в начало списка композиций.
При большом количестве элементов не заметил.

Плейлист

#EXTM3U
#EXTINF:310,Nerina Pallot - Longest Memory
\MP3\Nerina Pallot\The Sound and The Fury (2015)\11 - Longest Memory.mp3
#EXTINF:4074,CD2-AFTERSHOW
F:\MP3-1\CHILLOUT\Milano_Fashion_vol6\CD2-AFTERSHOW.cue
#EXTINF:-1,SomaFM: Lush (#1 130k aac): Sensuous and mellow vocals, mostly female, with an electronic influence.
http://uwstream2.somafm.com:8808

cue-файл

TITLE "Milano Fashion Vol. 6 -CD2-AfterShow"
PERFORMER VA
FILE "CD2-AFTERSHOW.mp3" MP3    ; 4074506.667 milliseconds
  TRACK 01 AUDIO
    TITLE Paradise
    PERFORMER "JOKER JUICE"
    INDEX 01 00:00:00
  TRACK 02 AUDIO
    TITLE "The Green Green Grass (Telefon Tel Aviv Remix)"
    PERFORMER "AMERICAN ANALOG SET"
    INDEX 01 05:03:57
  TRACK 03 AUDIO
    TITLE "What Else Is There?"
    PERFORMER ROYKSOPP
    INDEX 01 08:09:56
  TRACK 04 AUDIO
    TITLE "Burn Down"
    PERFORMER "PHYSICS "
    INDEX 01 12:11:46
  TRACK 05 AUDIO
    TITLE "Listen to the Drums (Original Edit)"
    PERFORMER OUTLINES
    INDEX 01 16:43:08
  TRACK 06 AUDIO
    TITLE Jazzhole
    PERFORMER "FREE THE ROBOTS"
    INDEX 01 21:26:00
  TRACK 07 AUDIO
    TITLE "Hit It Off (Original Mix)"
    PERFORMER "DENNIS FERRER"
    INDEX 01 25:10:36
  TRACK 08 AUDIO
    TITLE Chicago
    PERFORMER "GROOVE ARMADA"
    INDEX 01 30:29:06
  TRACK 09 AUDIO
    TITLE "Gold & Diamonds (Dj Kawasaki Remix)"
    PERFORMER "VICTOR DAVIES"
    INDEX 01 37:47:26
  TRACK 10 AUDIO
    TITLE "Janeiro (Mobasound vs Massivan Remix)"
    PERFORMER "MYSTIC DIVERSIONS feat. Nadine Renee"
    INDEX 01 43:04:34
  TRACK 11 AUDIO
    TITLE "Get Down (Woody Bianchi Radio Mix)"
    PERFORMER "TODD TERRY ALLSTARS feat. Tara McDonald"
    INDEX 01 48:13:22
  TRACK 12 AUDIO
    TITLE "Save Me (Coldcut Remix)"
    PERFORMER "NINA SIMONE"
    INDEX 01 51:34:48
  TRACK 13 AUDIO
    TITLE "Sahib Baldan"
    PERFORMER BUSCEMI
    INDEX 01 58:04:66
  TRACK 14 AUDIO
    TITLE Mary
    PERFORMER HUBA
    INDEX 01 62:21:24



15 Январь 2016, 04:17:09 pm
Ответ #34
  • Administrator
  • Sr. Member
  • *****
  • Сообщений: 484
    • Просмотр профиля
Re: Winyl 3.2 RC1
« Ответ #34 : 15 Январь 2016, 04:17:09 pm »
Проверил еще раз.Данные из cue-файла добавляются,но в начало списка композиций.
Теперь вижу. Проблем с CUE в плейлистах больше чем я думал. В данном случае это из-за того что CUE обрабатываются всегда первыми чтобы образ не дублировался в библиотеке. Это не нужно при импорте плейлиста, но т.к. код общий то влияет и тут.
Я не буду это фиксить, это настолько искуственно созданная проблема что я не вижу в этом смысла. Я посмотрел как другие плееры сохраняют плейлисты с CUE и все они это делают по разному и несовместимы между собой. То есть единственный вариант создать такой плейлист это открыть блокнот и вручную набивать все эти CUE, я не могу себе представить ситуацию когда кто-то будет заниматься подобным.

Так что просто напишу что CUE при импорте плейлиста не поддерживаются.

15 Январь 2016, 05:15:03 pm
Ответ #35
  • Newbie
  • *
  • Сообщений: 10
    • Просмотр профиля
Re: Winyl 3.2 RC1
« Ответ #35 : 15 Январь 2016, 05:15:03 pm »
Может тогда сделать отдельную независимую процедуру импорта плейлиста и совместимую с ней процедуру экспорта.Не обезательно это делать сейчас,но конфликт между между обрзом и cue-файлом желательно устранить.

16 Январь 2016, 01:44:31 pm
Ответ #36
  • Administrator
  • Sr. Member
  • *****
  • Сообщений: 484
    • Просмотр профиля
Re: Winyl 3.2 RC1
« Ответ #36 : 16 Январь 2016, 01:44:31 pm »
Я еще скорее всего буду менять функционал CUE в будущем в зависимости от пожеланий пользователей. И хотя именно эта возможность я думаю мало кому будет нужна, но изменение функционала CUE в других местах может затронуть и это, там все взаимосвязано. Так что вполне возможно что в будущих версиях с этим будет лучше.

17 Январь 2016, 04:03:16 pm
Ответ #37
  • Administrator
  • Sr. Member
  • *****
  • Сообщений: 484
    • Просмотр профиля
Re: Winyl 3.2 RC2
« Ответ #37 : 17 Январь 2016, 04:03:16 pm »
RC2

- Небольшие изменения.